<?xml version="1.0" standalone="no"?> 
<!DOCTYPE svg PUBLIC "-//W3C//DTD SVG 1.1//EN" "http://www.w3.org/Graphics/SVG/1.1/DTD/svg11.dtd" >
<svg xmlns="http://www.w3.org/2000/svg">
<defs>
  <font id="webix-material-icons" horiz-adv-x="24">
    <font-face font-family="Webix Material Icons"
      units-per-em="512" ascent="448"
      descent="64" />
    <missing-glyph horiz-adv-x="0" />
      <glyph glyph-name="angle-down"
      unicode="&#xF001;"
      horiz-adv-x="512" d=" M158.08 264.9600000000001L256 167.04L353.92 264.9600000000001L384 234.6666666666667L256 106.6666666666667L128 234.6666666666667L158.08 264.9600000000001z" />
      <glyph glyph-name="angle-left"
      unicode="&#xF002;"
      horiz-adv-x="512" d=" M328.7466666666667 94.2933333333334L231.04 192L328.7466666666667 289.92L298.6666666666667 320L170.6666666666667 192L298.6666666666667 64L328.7466666666667 94.2933333333334z" />
      <glyph glyph-name="angle-right"
      unicode="&#xF003;"
      horiz-adv-x="512" d=" M183.2533333333333 94.2933333333334L280.96 192L183.2533333333333 289.92L213.3333333333333 320L341.3333333333333 192L213.3333333333333 64L183.2533333333333 94.2933333333334z" />
      <glyph glyph-name="angle-up"
      unicode="&#xF004;"
      horiz-adv-x="512" d=" M158.08 119.2533333333333L256 216.96L353.92 119.2533333333333L384 149.3333333333334L256 277.3333333333334L128 149.3333333333334L158.08 119.2533333333333z" />
      <glyph glyph-name="angle-double-right"
      unicode="&#xF005;"
      horiz-adv-x="512" d=" M119.2533333333333 289.92L149.3333333333333 320L277.3333333333333 192L149.3333333333333 64L119.2533333333333 94.08L216.96 192L119.2533333333333 289.92M247.2533333333334 289.92L277.3333333333333 320L405.3333333333333 192L277.3333333333333 64L247.2533333333334 94.08L344.9600000000001 192L247.2533333333334 289.92z" />
      <glyph glyph-name="angle-double-left"
      unicode="&#xF006;"
      horiz-adv-x="512" d=" M392.7466666666667 289.92L362.6666666666667 320L234.6666666666667 192L362.6666666666667 64L392.7466666666667 94.08L295.04 192L392.7466666666667 289.92M264.7466666666667 289.92L234.6666666666667 320L106.6666666666667 192L234.6666666666667 64L264.7466666666667 94.08L167.04 192L264.7466666666667 289.92z" />
      <glyph glyph-name="clock"
      unicode="&#xF007;"
      horiz-adv-x="512" d=" M256 21.3333333333334C350.2933333333334 21.3333333333334 426.6666666666667 97.7066666666667 426.6666666666667 192S350.2933333333334 362.6666666666667 256 362.6666666666667S85.3333333333333 286.2933333333334 85.3333333333333 192S161.7066666666667 21.3333333333334 256 21.3333333333334M256 405.3333333333333C373.76 405.3333333333333 469.3333333333333 309.76 469.3333333333333 192S373.76 -21.3333333333333 256 -21.3333333333333C138.0266666666667 -21.3333333333333 42.6666666666667 74.6666666666667 42.6666666666667 192C42.6666666666667 309.76 138.24 405.3333333333333 256 405.3333333333333M266.6666666666667 298.6666666666667V186.6666666666667L362.6666666666667 129.7066666666667L346.6666666666667 103.4666666666667L234.6666666666667 170.6666666666667V298.6666666666667H266.6666666666667z" />
      <glyph glyph-name="calendar"
      unicode="&#xF008;"
      horiz-adv-x="512" d=" M405.3333333333333 42.6666666666667H106.6666666666667V277.3333333333334H405.3333333333333M341.3333333333333 426.6666666666667V384H170.6666666666667V426.6666666666667H128V384H106.6666666666667C82.9866666666667 384 64 365.0133333333333 64 341.3333333333334V42.6666666666667C64 19.2 83.2 0 106.6666666666667 0H405.3333333333333C428.8 0 448 19.2 448 42.6666666666667V341.3333333333334C448 365.0133333333333 428.8 384 405.3333333333333 384H384V426.6666666666667M362.6666666666667 192H256V85.3333333333334H362.6666666666667V192z" />
      <glyph glyph-name="search"
      unicode="&#xF009;"
      horiz-adv-x="512" d=" M202.6666666666667 384C279.2533333333334 384 341.3333333333333 321.92 341.3333333333333 245.3333333333334C341.3333333333333 210.9866666666667 328.7466666666667 179.4133333333334 308.0533333333333 155.0933333333334L313.8133333333333 149.3333333333334H330.6666666666667L437.3333333333333 42.6666666666667L405.3333333333333 10.6666666666667L298.6666666666667 117.3333333333334V134.1866666666667L292.9066666666667 139.9466666666667C268.5866666666667 119.2533333333333 237.0133333333333 106.6666666666667 202.6666666666667 106.6666666666667C126.08 106.6666666666667 64 168.7466666666667 64 245.3333333333334S126.08 384 202.6666666666667 384M202.6666666666667 341.3333333333334C149.3333333333333 341.3333333333334 106.6666666666667 298.6666666666667 106.6666666666667 245.3333333333334S149.3333333333333 149.3333333333334 202.6666666666667 149.3333333333334S298.6666666666667 192 298.6666666666667 245.3333333333334S256 341.3333333333334 202.6666666666667 341.3333333333334z" />
      <glyph glyph-name="dots"
      unicode="&#xF010;"
      horiz-adv-x="512" d=" M256 106.6666666666667C279.4666666666667 106.6666666666667 298.6666666666667 87.4666666666667 298.6666666666667 64S279.4666666666667 21.3333333333334 256 21.3333333333334S213.3333333333333 40.5333333333333 213.3333333333333 64S232.5333333333334 106.6666666666667 256 106.6666666666667M256 234.6666666666667C279.4666666666667 234.6666666666667 298.6666666666667 215.4666666666667 298.6666666666667 192S279.4666666666667 149.3333333333334 256 149.3333333333334S213.3333333333333 168.5333333333334 213.3333333333333 192S232.5333333333334 234.6666666666667 256 234.6666666666667M256 362.6666666666667C279.4666666666667 362.6666666666667 298.6666666666667 343.4666666666667 298.6666666666667 320S279.4666666666667 277.3333333333334 256 277.3333333333334S213.3333333333333 296.5333333333334 213.3333333333333 320S232.5333333333334 362.6666666666667 256 362.6666666666667z" />
       <glyph glyph-name="close"
      unicode="&#xF011;"
      horiz-adv-x="512" d=" M405.3333333333333 311.2533333333334L375.2533333333334 341.3333333333334L256 222.08L136.7466666666667 341.3333333333334L106.6666666666667 311.2533333333334L225.92 192L106.6666666666667 72.7466666666667L136.7466666666667 42.6666666666667L256 161.92L375.2533333333334 42.6666666666667L405.3333333333333 72.7466666666667L286.08 192L405.3333333333333 311.2533333333334z" />
      <glyph glyph-name="checkbox-marked"
      unicode="&#xF012;"
      horiz-adv-x="512" d=" M213.3333333333333 85.3333333333334L106.6666666666667 192L136.7466666666667 222.2933333333334L213.3333333333333 145.7066666666667L375.2533333333334 307.6266666666667L405.3333333333333 277.3333333333334M405.3333333333333 384H106.6666666666667C82.9866666666667 384 64 365.0133333333333 64 341.3333333333334V42.6666666666667C64 19.2 83.2 0 106.6666666666667 0H405.3333333333333C428.8 0 448 19.2 448 42.6666666666667V341.3333333333334C448 365.0133333333333 428.8 384 405.3333333333333 384z" />
      <glyph glyph-name="checkbox-blank"
      unicode="&#xF013;"
      horiz-adv-x="512" d=" M405.3333333333333 384H106.6666666666667C82.9866666666667 384 64 365.0133333333333 64 341.3333333333334V42.6666666666667C64 19.2 83.2 0 106.6666666666667 0H405.3333333333333C428.8 0 448 19.2 448 42.6666666666667V341.3333333333334C448 365.0133333333333 428.8 384 405.3333333333333 384M405.3333333333333 341.3333333333334V42.6666666666667H106.6666666666667V341.3333333333334H405.3333333333333z" />
      <glyph glyph-name="trash"
      unicode="&#xF014;"
      horiz-adv-x="512" d=" M192 384V362.6666666666667H85.3333333333333V320H106.6666666666667V42.6666666666667C106.6666666666667 19.2 125.8666666666667 0 149.3333333333333 0H362.6666666666667C386.1333333333334 0 405.3333333333333 19.2 405.3333333333333 42.6666666666667V320H426.6666666666667V362.6666666666667H320V384H192M192 277.3333333333334H234.6666666666667V85.3333333333334H192V277.3333333333334M277.3333333333333 277.3333333333334H320V85.3333333333334H277.3333333333333V277.3333333333334z" />
      <glyph glyph-name="pencil"
      unicode="&#xF015;"
      horiz-adv-x="512" d=" M441.8133333333334 297.8133333333334C450.1333333333334 306.1333333333334 450.1333333333334 320 441.8133333333334 327.8933333333333L391.8933333333333 377.8133333333334C384 386.1333333333334 370.1333333333334 386.1333333333334 361.8133333333334 377.8133333333334L322.56 338.7733333333333L402.56 258.7733333333333M64 80V0H144L379.9466666666666 236.1600000000001L299.9466666666666 316.1600000000001L64 80z" />
      <glyph glyph-name="eye"
      unicode="&#xF016;"
      horiz-adv-x="512" d=" M256 256C220.5866666666667 256 192 227.4133333333334 192 192S220.5866666666667 128 256 128S320 156.5866666666667 320 192S291.4133333333333 256 256 256M256 85.3333333333334C197.12 85.3333333333334 149.3333333333333 133.12 149.3333333333333 192S197.12 298.6666666666667 256 298.6666666666667S362.6666666666667 250.88 362.6666666666667 192S314.88 85.3333333333334 256 85.3333333333334M256 352C149.3333333333333 352 58.24 285.6533333333333 21.3333333333333 192C58.24 98.3466666666667 149.3333333333333 32 256 32S453.76 98.3466666666667 490.6666666666666 192C453.76 285.6533333333333 362.6666666666667 352 256 352z" />
      <glyph glyph-name="eye-slash"
      unicode="&#xF017;"
      horiz-adv-x="512" d=" M252.3733333333334 256L320 188.5866666666667V192C320 227.4133333333334 291.4133333333333 256 256 256H252.3733333333334M160.64 238.9333333333334L193.7066666666667 205.8666666666667C192.64 201.3866666666666 192 196.9066666666667 192 192C192 156.5866666666667 220.5866666666667 128 256 128C260.6933333333334 128 265.3866666666667 128.64 269.8666666666667 129.7066666666667L302.9333333333334 96.64C288.64 89.6 272.8533333333334 85.3333333333333 256 85.3333333333333C197.12 85.3333333333333 149.3333333333333 133.12 149.3333333333333 192C149.3333333333333 208.8533333333333 153.6 224.6399999999999 160.64 238.9333333333333M42.6666666666667 356.9066666666667L91.3066666666666 308.2666666666667L100.9066666666667 298.6666666666667C65.7066666666667 270.9333333333334 37.9733333333333 234.6666666666667 21.3333333333333 192C58.24 98.3466666666667 149.3333333333333 32 256 32C289.0666666666667 32 320.64 38.4 349.44 49.92L358.6133333333333 40.96L420.9066666666667 -21.3333333333333L448 5.76L69.76 384M256 298.6666666666667C314.88 298.6666666666667 362.6666666666667 250.88 362.6666666666667 192C362.6666666666667 178.3466666666667 359.8933333333333 165.12 354.9866666666667 153.1733333333334L417.4933333333334 90.6666666666667C449.4933333333334 117.3333333333334 475.0933333333333 152.3200000000001 490.6666666666666 192C453.76 285.6533333333333 362.6666666666667 352 256 352C226.1333333333334 352 197.5466666666667 346.6666666666667 170.6666666666667 337.0666666666667L216.96 291.2000000000001C229.12 295.8933333333333 242.1333333333334 298.6666666666667 256 298.6666666666667z" />
      <glyph glyph-name="columns"
      unicode="&#xF018;"
      horiz-adv-x="512" d=" M106.6666666666667 362.6666666666667H405.3333333333333C428.8 362.6666666666667 448 343.4666666666667 448 320V64C448 40.5333333333333 428.8 21.3333333333334 405.3333333333333 21.3333333333334H106.6666666666667C83.2 21.3333333333334 64 40.5333333333333 64 64V320C64 343.4666666666667 83.2 362.6666666666667 106.6666666666667 362.6666666666667M106.6666666666667 277.3333333333334V192H234.6666666666667V277.3333333333334H106.6666666666667M277.3333333333333 277.3333333333334V192H405.3333333333333V277.3333333333334H277.3333333333333M106.6666666666667 149.3333333333334V64H234.6666666666667V149.3333333333334H106.6666666666667M277.3333333333333 149.3333333333334V64H405.3333333333333V149.3333333333334H277.3333333333333z" />
      <glyph glyph-name="drag"
      unicode="&#xF019;"
      horiz-adv-x="512" d=" M149.3333333333333 42.6666666666667V85.3333333333334H192V42.6666666666667H149.3333333333333M234.6666666666667 42.6666666666667V85.3333333333334H277.3333333333333V42.6666666666667H234.6666666666667M320 42.6666666666667V85.3333333333334H362.6666666666667V42.6666666666667H320M149.3333333333333 128V170.6666666666667H192V128H149.3333333333333M234.6666666666667 128V170.6666666666667H277.3333333333333V128H234.6666666666667M320 128V170.6666666666667H362.6666666666667V128H320M149.3333333333333 213.3333333333334V256H192V213.3333333333334H149.3333333333333M234.6666666666667 213.3333333333334V256H277.3333333333333V213.3333333333334H234.6666666666667M320 213.3333333333334V256H362.6666666666667V213.3333333333334H320M149.3333333333333 298.6666666666667V341.3333333333334H192V298.6666666666667H149.3333333333333M234.6666666666667 298.6666666666667V341.3333333333334H277.3333333333333V298.6666666666667H234.6666666666667M320 298.6666666666667V341.3333333333334H362.6666666666667V298.6666666666667H320z" />
      <glyph glyph-name="check"
      unicode="&#xF020;"
      horiz-adv-x="512" d=" M448 298.6666666666667L192 42.6666666666667L74.6666666666667 160L104.7466666666667 190.0800000000001L192 103.04L417.92 328.7466666666667L448 298.6666666666667z" />
      <glyph glyph-name="underline"
      unicode="&#xF021;"
      horiz-adv-x="512" d=" M106.6666666666667 0H405.3333333333333V42.6666666666667H106.6666666666667V0M256 85.3333333333334C326.6133333333334 85.3333333333334 384 142.72 384 213.3333333333334V384H330.6666666666667V213.3333333333334C330.6666666666667 172.16 297.1733333333333 138.6666666666667 256 138.6666666666667S181.3333333333333 172.16 181.3333333333333 213.3333333333334V384H128V213.3333333333334C128 142.72 185.3866666666667 85.3333333333334 256 85.3333333333334z" />
      <glyph glyph-name="bold"
      unicode="&#xF022;"
      horiz-adv-x="512" d=" M288 117.3333333333334H213.3333333333333V181.3333333333334H288C305.7066666666667 181.3333333333334 320 167.04 320 149.3333333333334S305.7066666666667 117.3333333333334 288 117.3333333333334M213.3333333333333 309.3333333333334H277.3333333333333C295.04 309.3333333333334 309.3333333333333 295.04 309.3333333333333 277.3333333333334S295.04 245.3333333333334 277.3333333333333 245.3333333333334H213.3333333333333M332.8 217.8133333333334C353.4933333333334 232.32 368 256 368 277.3333333333334C368 325.5466666666667 330.6666666666667 362.6666666666667 282.6666666666667 362.6666666666667H149.3333333333333V64H299.52C344.32 64 378.6666666666667 100.2666666666667 378.6666666666667 144.8533333333334C378.6666666666667 177.28 360.32 205.0133333333333 332.8 217.8133333333333z" />
      <glyph glyph-name="italic"
      unicode="&#xF023;"
      horiz-adv-x="512" d=" M213.3333333333333 362.6666666666667V298.6666666666667H260.48L187.52 128H128V64H298.6666666666667V128H251.52L324.48 298.6666666666667H384V362.6666666666667H213.3333333333333z" />
      <glyph glyph-name="sync"
      unicode="&#xF024;"
      horiz-adv-x="512" d=" M256 320V256L341.3333333333333 341.3333333333334L256 426.6666666666667V362.6666666666667C161.7066666666667 362.6666666666667 85.3333333333333 286.2933333333334 85.3333333333333 192C85.3333333333333 158.5066666666667 95.1466666666667 127.36 111.7866666666667 101.1200000000001L142.9333333333333 132.2666666666667C133.3333333333333 149.9733333333334 128 170.6666666666667 128 192C128 262.6133333333334 185.3866666666667 320 256 320M400.2133333333333 282.88L369.0666666666667 251.7333333333334C378.4533333333334 233.8133333333334 384 213.3333333333334 384 192C384 121.3866666666667 326.6133333333334 64 256 64V128L170.6666666666667 42.6666666666667L256 -42.6666666666666V21.3333333333334C350.2933333333334 21.3333333333334 426.6666666666667 97.7066666666667 426.6666666666667 192C426.6666666666667 225.4933333333334 416.8533333333333 256.64 400.2133333333334 282.88z" />
      <glyph glyph-name="plus-square"
      unicode="&#xF025;"
      horiz-adv-x="512" d=" M405.3333333333333 42.6666666666667V341.3333333333334H106.6666666666667V42.6666666666667H405.3333333333333M405.3333333333333 384C428.8 384 448 364.8 448 341.3333333333334V42.6666666666667C448 19.2 428.8 0 405.3333333333333 0H106.6666666666667C83.2 0 64 19.2 64 42.6666666666667V341.3333333333334C64 365.0133333333333 83.2 384 106.6666666666667 384H405.3333333333333M234.6666666666667 298.6666666666667H277.3333333333333V213.3333333333334H362.6666666666667V170.6666666666667H277.3333333333333V85.3333333333334H234.6666666666667V170.6666666666667H149.3333333333333V213.3333333333334H234.6666666666667V298.6666666666667z" />
      <glyph glyph-name="minus-square"
      unicode="&#xF026;"
      horiz-adv-x="512" d=" M405.3333333333333 42.6666666666667V341.3333333333334H106.6666666666667V42.6666666666667H405.3333333333333M405.3333333333333 384C428.8 384 448 364.8 448 341.3333333333334V42.6666666666667C448 19.2 428.8 0 405.3333333333333 0H106.6666666666667C83.2 0 64 19.2 64 42.6666666666667V341.3333333333334C64 365.0133333333333 83.2 384 106.6666666666667 384H405.3333333333333M362.6666666666667 213.3333333333334V170.6666666666667H149.3333333333333V213.3333333333334H362.6666666666667z" />
      <glyph glyph-name="menu-down"
      unicode="&#xF027;"
      horiz-adv-x="512" d=" M149.3333333333333 234.6666666666667L256 128L362.6666666666667 234.6666666666667H149.3333333333333z" />
      <glyph glyph-name="menu-right"
      unicode="&#xF028;"
      horiz-adv-x="512" d=" M213.3333333333333 85.3333333333334L320 192L213.3333333333333 298.6666666666667V85.3333333333334z" />
      <glyph glyph-name="menu-left"
      unicode="&#xF029;"
      horiz-adv-x="512" d=" M298.6666666666667 298.6666666666667L192 192L298.6666666666667 85.3333333333334V298.6666666666667z" />
      <glyph glyph-name="folder"
      unicode="&#xF030;"
      horiz-adv-x="512" d=" M213.3333333333333 362.6666666666667H85.3333333333333C61.6533333333333 362.6666666666667 42.6666666666667 343.68 42.6666666666667 320V64C42.6666666666667 40.5333333333333 61.8666666666667 21.3333333333334 85.3333333333333 21.3333333333334H426.6666666666667C450.1333333333334 21.3333333333334 469.3333333333333 40.5333333333333 469.3333333333333 64V277.3333333333334C469.3333333333333 301.0133333333333 450.1333333333334 320 426.6666666666667 320H256L213.3333333333333 362.6666666666667z" />
      <glyph glyph-name="folder-open"
      unicode="&#xF031;"
      horiz-adv-x="512" d=" M405.3333333333333 21.3333333333334H85.3333333333333C61.6533333333333 21.3333333333334 42.6666666666667 40.5333333333333 42.6666666666667 64V320C42.6666666666667 343.68 61.6533333333333 362.6666666666667 85.3333333333333 362.6666666666667H213.3333333333333L256 320H405.3333333333333C428.8 320 448 300.8 448 277.3333333333334H85.3333333333333V64L130.9866666666667 234.6666666666667H495.1466666666666L446.5066666666667 53.3333333333334C441.6 34.7733333333333 424.9599999999999 21.3333333333334 405.3333333333333 21.3333333333334z" />
      <glyph glyph-name="file"
      unicode="&#xF032;"
      horiz-adv-x="512" d=" M277.3333333333333 256V373.3333333333334L394.6666666666667 256M128 405.3333333333333C104.32 405.3333333333333 85.3333333333333 386.3466666666667 85.3333333333333 362.6666666666667V21.3333333333334C85.3333333333333 -2.1333333333333 104.5333333333333 -21.3333333333333 128 -21.3333333333333H384C407.4666666666667 -21.3333333333333 426.6666666666667 -2.1333333333333 426.6666666666667 21.3333333333334V277.3333333333334L298.6666666666667 405.3333333333333H128z" />
      <glyph glyph-name="close-circle"
      unicode="&#xF033;"
      horiz-adv-x="512" d=" M256 405.3333333333333C373.9733333333334 405.3333333333333 469.3333333333333 309.9733333333334 469.3333333333333 192S373.9733333333334 -21.3333333333333 256 -21.3333333333333S42.6666666666667 74.0266666666666 42.6666666666667 192S138.0266666666667 405.3333333333333 256 405.3333333333333M332.5866666666667 298.6666666666667L256 222.08L179.4133333333333 298.6666666666667L149.3333333333333 268.5866666666667L225.92 192L149.3333333333333 115.4133333333334L179.4133333333333 85.3333333333334L256 161.92L332.5866666666667 85.3333333333334L362.6666666666667 115.4133333333334L286.08 192L362.6666666666667 268.5866666666667L332.5866666666667 298.6666666666667z" />
      <glyph glyph-name="alert"
      unicode="&#xF034;"
      horiz-adv-x="512" d=" M277.3333333333333 149.3333333333334H234.6666666666667V234.6666666666667H277.3333333333333M277.3333333333333 64H234.6666666666667V106.6666666666667H277.3333333333333M21.3333333333333 0H490.6666666666666L256 405.3333333333333L21.3333333333333 0z" />
      <glyph glyph-name="radiobox-blank"
      unicode="&#xF035;"
      horiz-adv-x="512" d=" M256 21.3333333333334C161.7066666666667 21.3333333333334 85.3333333333333 97.7066666666667 85.3333333333333 192S161.7066666666667 362.6666666666667 256 362.6666666666667S426.6666666666667 286.2933333333334 426.6666666666667 192S350.2933333333334 21.3333333333334 256 21.3333333333334M256 405.3333333333333C138.24 405.3333333333333 42.6666666666667 309.76 42.6666666666667 192S138.24 -21.3333333333333 256 -21.3333333333333S469.3333333333333 74.24 469.3333333333333 192S373.76 405.3333333333333 256 405.3333333333333z" />
      <glyph glyph-name="radiobox-marked"
      unicode="&#xF036;"
      horiz-adv-x="512" d=" M256 21.3333333333334C161.7066666666667 21.3333333333334 85.3333333333333 97.7066666666667 85.3333333333333 192S161.7066666666667 362.6666666666667 256 362.6666666666667S426.6666666666667 286.2933333333334 426.6666666666667 192S350.2933333333334 21.3333333333334 256 21.3333333333334M256 405.3333333333333C138.24 405.3333333333333 42.6666666666667 309.76 42.6666666666667 192S138.24 -21.3333333333333 256 -21.3333333333333S469.3333333333333 74.24 469.3333333333333 192S373.76 405.3333333333333 256 405.3333333333333M256 298.6666666666667C197.12 298.6666666666667 149.3333333333333 250.88 149.3333333333333 192S197.12 85.3333333333334 256 85.3333333333334S362.6666666666667 133.12 362.6666666666667 192S314.88 298.6666666666667 256 298.6666666666667z" />
      <glyph glyph-name="angle-double-down"
      unicode="&#xF037;"
      horiz-adv-x="512" d=" M353.92 328.7466666666667L384 298.6666666666667L256 170.6666666666667L128 298.6666666666667L158.08 328.7466666666667L256 231.04L353.92 328.7466666666667M353.92 200.7466666666667L384 170.6666666666667L256 42.6666666666667L128 170.6666666666667L158.08 200.7466666666667L256 103.04L353.92 200.7466666666667z" />
      <glyph glyph-name="chevron-double-up"
      unicode="&#xF038;"
      horiz-adv-x="512" d=" M158.08 55.2533333333333L128 85.3333333333334L256 213.3333333333334L384 85.3333333333334L353.92 55.2533333333333L256 152.96L158.08 55.2533333333333M158.08 183.2533333333333L128 213.3333333333334L256 341.3333333333334L384 213.3333333333334L353.92 183.2533333333333L256 280.9600000000001L158.08 183.2533333333333z" />
      <glyph glyph-name="plus-circle"
      unicode="&#xF039;"
      horiz-adv-x="512" d=" M362.6666666666667 170.6666666666667H277.3333333333333V85.3333333333334H234.6666666666667V170.6666666666667H149.3333333333333V213.3333333333334H234.6666666666667V298.6666666666667H277.3333333333333V213.3333333333334H362.6666666666667M256 405.3333333333333C138.24 405.3333333333333 42.6666666666667 309.76 42.6666666666667 192S138.24 -21.3333333333333 256 -21.3333333333333S469.3333333333333 74.24 469.3333333333333 192S373.76 405.3333333333333 256 405.3333333333333z" />
      <glyph glyph-name="minus-circle"
      unicode="&#xF040;"
      horiz-adv-x="512" d=" M362.6666666666667 170.6666666666667H149.3333333333333V213.3333333333334H362.6666666666667M256 405.3333333333333C138.24 405.3333333333333 42.6666666666667 309.76 42.6666666666667 192S138.24 -21.3333333333333 256 -21.3333333333333S469.3333333333333 74.24 469.3333333333333 192S373.76 405.3333333333333 256 405.3333333333333z" />
      <glyph glyph-name="plus"
      unicode="&#xF041;"
      horiz-adv-x="512" d=" M405.3333333333333 170.6666666666667H277.3333333333333V42.6666666666667H234.6666666666667V170.6666666666667H106.6666666666667V213.3333333333334H234.6666666666667V341.3333333333334H277.3333333333333V213.3333333333334H405.3333333333333V170.6666666666667z" />
      <glyph glyph-name="minus"
      unicode="&#xF042;"
      horiz-adv-x="512" d=" M405.3333333333333 170.6666666666667H106.6666666666667V213.3333333333334H405.3333333333333V170.6666666666667z" />
      <glyph glyph-name="download"
      unicode="&#xF043;"
      horiz-adv-x="512" d=" M106.6666666666667 21.3333333333334H405.3333333333333V64H106.6666666666667M405.3333333333333 256H320V384H192V256H106.6666666666667L256 106.6666666666667L405.3333333333333 256z" />
      <glyph glyph-name="user"
      unicode="&#xF044;"
      horiz-adv-x="512" d=" M256 362.6666666666667C303.1466666666667 362.6666666666667 341.3333333333333 324.48 341.3333333333333 277.3333333333334S303.1466666666667 192 256 192S170.6666666666667 230.1866666666667 170.6666666666667 277.3333333333334S208.8533333333333 362.6666666666667 256 362.6666666666667M256 149.3333333333334C350.2933333333334 149.3333333333334 426.6666666666667 111.1466666666667 426.6666666666667 64V21.3333333333334H85.3333333333333V64C85.3333333333333 111.1466666666667 161.7066666666667 149.3333333333334 256 149.3333333333334z" />
  </font>
</defs>
</svg>
